avconv MP4 в WebM переполнения буфера libvorbis

голоса
4

Попытка преобразовать кучу mp4 файлов в WebM. Поэтому я выполнить следующую команду. Я попробовал аналогичную команду с FFmpeg.

avconv -i input.mp4 -threads 8 -s 1280x720 -pre libvpx-720p -b 3900k -pass 2 -acodec libvorbis -b:a 128k -ac 2 -f webm -y output/webm

Результаты в:

    Input #0, mov,mp4,m4a,3gp,3g2,mj2, from 'input.mp4':
  Metadata:
    major_brand     : isom
    minor_version   : 512
    compatible_brands: isomiso2mp41
    creation_time   : 1970-01-01 00:00:00
    encoder         : Lavf52.32.0
  Duration: 00:01:02.90, start: 0.000000, bitrate: 1649 kb/s
    Stream #0.0(und): Video: mpeg4 (Simple Profile), yuv420p, 640x480 [PAR 4:3 DAR 16:9], 1492 kb/s, PAR 853:640 DAR 853:480, 23.94 fps, 30 tbr, 30 tbn, 30 tbc
    Metadata:
      creation_time   : 1970-01-01 00:00:00
    Stream #0.1(und): Audio: aac, 44100 Hz, stereo, s16, 152 kb/s
    Metadata:
      creation_time   : 1970-01-01 00:00:00
[buffer @ 0x1232600] w:640 h:480 pixfmt:yuv420p
[scale @ 0x123c300] w:640 h:480 fmt:yuv420p -> w:1280 h:720 fmt:yuv420p flags:0x4
[libvpx @ 0x1256d60] v1.0.0
Output #0, webm, to 'output.webm':
  Metadata:
    major_brand     : isom
    minor_version   : 512
    compatible_brands: isomiso2mp41
    creation_time   : 1970-01-01 00:00:00
    encoder         : Lavf53.21.0
    Stream #0.0(und): Video: libvpx, yuv420p, 1280x720 [PAR 2559:2560 DAR 853:480], q=11-51, pass 2, 3900 kb/s, 1k tbn, 30 tbc
    Metadata:
      creation_time   : 1970-01-01 00:00:00
    Stream #0.1(und): Audio: libvorbis, 44100 Hz, stereo, s16, 152 kb/s
    Metadata:
      creation_time   : 1970-01-01 00:00:00
Stream mapping:
  Stream #0:0 -> #0:0 (mpeg4 -> libvpx)
  Stream #0:1 -> #0:1 (aac -> libvorbis)
Press ctrl-c to stop encoding
[libvorbis @ 0x1221240] libvorbis: buffer overflow.Audio encoding failed

Обратите внимание на хорошую ошибку. переполнение буфера в libvorbis.

Любая помощь? Команда Альтернативное преобразование?

ОБНОВИТЬ

Первый проход выглядит следующим образом:

 avconv -i input.mp4 -threads 8 -s 1280x720 -pre libvpx-720p -b 3900k -pass 1 -an -f webm -y output.webm

Благодаря!

Задан 30/05/2012 в 01:36
источник пользователем
На других языках...                            


2 ответов

голоса
7

Оказывается, это была проблема с -Pre против -preset в avconv. Вся эта FFmpeg вилка avconv нарушила сообщество для всех, кроме разработчиков. Теперь прибегая к помощи полезной информации на любом инструменте бесполезно.

Для тех, кто в конечном итоге здесь на аналогичный вопрос, это как я преобразовал мой MP4 в WebM.

avconv -i "$inputFile" -threads 8 -s 1280x720 -preset libvpx-720p -b 3900k -pass 1 -an -f webm -y "$outputFile"
avconv -i "$inputFile" -threads 8 -preset libvpx-720p -pass 2 -b 3900k -acodec libvorbis -ar 44100 -ac 2 -ab 128k -f webm -y "$outputFile"

Это для 720P MP4 в 720P WebM. Вы можете легко настроить до 1080P, предустановленное существует.

Ответил 30/05/2012 в 06:13
источник пользователем

голоса
3

Я делаю это, чтобы преобразовать из моей видеокамеры до 720p WebM в один проход:

avconv -i videoIn.MTS -c:v libvpx -b:v 6000k -qmin 10 -qmax 42 -maxrate 500k -bufsize 1500k -threads 8 -vf scale=-1:720 -c:a libvorbis -b:a 192k -f webm videoOut.webm
Ответил 04/01/2013 в 21:28
источник пользователем

Cookies help us deliver our services. By using our services, you agree to our use of cookies. Learn more